Ghost Stories 2020 Hindi 720p NF WEB-DL DD+5.1 H264 ESubs - Movie...

  • Category Movies
  • Type Bollywood
  • Language Hindi
  • Total size 1.3 GB
  • Uploaded By uploader6969
  • Downloads 26362
  • Last checked 1 week ago
  • Date uploaded 2 weeks ago
  • Seeders 248
  • Leechers 63

Infohash : 3351C7068A9D59BE1476C7510046F9D9835186FC

www.MoviePirate.Site


Telegram Link



****************************
_____ _ _ 
|_ _|___ | || | _ _ 
| | / _ \| || || | | |
| || __/| || || |_| |
|_| \___||_||_| \__, |
|___/ 
****************************
Team Telly Proudly Presents
****************************
------------------
|Media Info|
------------------
General
Unique ID                                : 156552307175460133014440907551705970871 (0x75C6E0AC0BC2DCD6128A208F82D0B8B7)
Complete name                            : D:\Encoded\Done\Ghost Stories 2020 Hindi 720p NF WEB-DL DD+5.1 H264 ESubs - MoviePirate - Telly\Ghost Stories 2020 Hindi 720p NF WEB-DL DD+5.1 H264 ESubs - MoviePirate - Telly.mkv
Format                                   : Matroska
Format version                           : Version 4
File size                                : 1.34 GiB
Duration                                 : 2 h 24 min
Overall bit rate mode                    : Variable
Overall bit rate                         : 1 329 kb/s
Encoded date                             : UTC 2019-12-31 18:51:53 / UTC 2019-12-25 06:20:24
Writing application                      : mkvmerge v37.0.0 ('Leave It') 64-bit
Writing library                          : libebml v1.3.9 + libmatroska v1.5.2 / Lavf58.1.0
Video
ID                                       : 1
Format                                   : AVC
Format/Info                              : Advanced Video Codec
Format profile                           : [email protected]
Format settings                          : CABAC / 4 Ref Frames
Format settings, CABAC                   : Yes
Format settings, Reference frames        : 4 frames
Codec ID                                 : V_MPEG4/ISO/AVC
Duration                                 : 2 h 24 min
Bit rate mode                            : Variable
Bit rate                                 : 663 kb/s
Maximum bit rate                         : 14.0 Mb/s
Width                                    : 1 280 pixels
Height                                   : 720 pixels
Display aspect ratio                     : 16:9
Frame rate mode                          : Constant
Frame rate                               : 24.000 FPS
Color space                              : YUV
Chroma subsampling                       : 4:2:0
Bit depth                                : 8 bits
Scan type                                : Progressive
Bits/(Pixel*Frame)                       : 0.030
Stream size                              : 685 MiB (50%)
Writing library                          : x264 core 148 r2715 7e75228
Encoding settings                        : cabac=1 / ref=4 / deblock=1:0:0 / analyse=0x3:0x111 / me=umh / subme=10 / psy=1 / psy_rd=1.00:0.00 / mixed_ref=1 / me_range=120 / chroma_me=1 / trellis=2 / 8x8dct=1 / cqm=0 / deadzone=21,11 / fast_pskip=1 / chroma_qp_offset=-2 / threads=6 / lookahead_threads=1 / sliced_threads=0 / nr=0 / decimate=1 / interlaced=0 / bluray_compat=0 / stitchable=1 / constrained_intra=0 / bframes=16 / b_pyramid=2 / b_adapt=2 / b_bias=0 / direct=3 / weightb=1 / open_gop=0 / weightp=2 / keyint=240 / keyint_min=121 / scenecut=0 / intra_refresh=0 / rc_lookahead=240 / rc=crf / mbtree=1 / crf=20.0 / qcomp=0.50 / qpmin=6 / qpmax=51 / qpstep=4 / vbv_maxrate=14000 / vbv_bufsize=14000 / crf_max=0.0 / nal_hrd=vbr / filler=0 / ip_ratio=1.40 / aq=1:0.80
Default                                  : Yes
Forced                                   : No
Audio
ID                                       : 2
Format                                   : E-AC-3
Format/Info                              : Enhanced AC-3
Commercial name                          : Dolby Digital Plus
Codec ID                                 : A_EAC3
Duration                                 : 2 h 24 min
Bit rate mode                            : Constant
Bit rate                                 : 640 kb/s
Channel(s)                               : 6 channels
Channel layout                           : L R C LFE Ls Rs
Sampling rate                            : 48.0 kHz
Frame rate                               : 31.250 FPS (1536 SPF)
Compression mode                         : Lossy
Stream size                              : 662 MiB (48%)
Service kind                             : Complete Main
Default                                  : Yes
Forced                                   : No
Encoded date                             : UTC 2019-12-25 06:20:24
****************************
Telly.cc
Team Telly Official Site
****************************
www.MoviePirate.Site
Enjoy Exclusives Content only on Telly.cc


Files:

Ghost Stories 2020 Hindi 720p NF WEB-DL DD+5.1 H264 ESubs - MoviePirate - Telly
  • Ghost Stories 2020 Hindi 720p NF WEB-DL DD+5.1 H264 ESubs - MoviePirate - Telly.mkv (1.3 GB)
  • MoviePirate.Site.txt (0.1 KB)

Comments

Code:

  • udp://tracker.coppersurfer.tk:6969/announce
  • udp://tracker.leechers-paradise.org:6969/announce
  • udp://open.stealth.si:80/announce
  • udp://tracker.internetwarriors.net:1337/announce
  • udp://tracker.openbittorrent.com:80/announce
  • udp://explodie.org:6969/announce
  • udp://tracker.opentrackr.org:1337/announce
  • udp://tracker.tiny-vps.com:6969/announce
  • udp://open.demonii.si:1337/announce
  • udp://tracker.torrent.eu.org:451/announce
  • udp://tracker.pirateparty.gr:6969/announce
  • udp://ipv4.tracker.harry.lu:80/announce
  • udp://tracker.cyberia.is:6969/announce
  • udp://9.rarbg.to:2710/announce
  • udp://denis.stalker.upeer.me:6969/announce