Batman - Return of the Caped Crusaders (2016) (1080p BDRip x265 1...

  • Category Movies
  • Type HEVC/x265
  • Language English
  • Total size 2.1 GB
  • Uploaded By Goki
  • Downloads 308
  • Last checked 14 minutes ago
  • Date uploaded 3 days ago
  • Seeders 16
  • Leechers 6

Batman: Return of the Caped Crusade...

ActionAnimationComedy

Adam West and Burt Ward returns to their iconic roles of Batman and Robin. Featuring the voices of Adam West, Burt Ward, and Julie Newmar, the film sees the superheroes going up against classic villains like The Joker, The Riddler, The Penguin and Catwoman, both in Gotham City… and in space.

Infohash : 181C30706D3A8D9F1C3B799AB649BB42A955BF5B




Batman - Return of the Caped Crusaders (2016) IMDB










Media Information



Unique ID : 266810901408228411702337389079362540954 (0xC8B9E91352DBDA13C00F35525598159A)
Complete name : Batman - Return of the Caped Crusaders (2016) (1080p BDRip x265 10bit EAC3 5.1 - Goki).mkv
Format : Matroska
Format version : Version 4
File size : 2.06 GiB
Duration : 1 h 18 min
Overall bit rate : 3 764 kb/s
Movie name : Batman - Return of the Caped Crusaders (2016) (1080p BDRip x265 10bit EAC3 5.1 - Goki).mkv
Encoded date : UTC 2020-01-02 13:47:35
Writing application : mkvmerge v28.2.0 ('The Awakening') 64-bit
Writing library : libebml v1.3.6 + libmatroska v1.4.9

Video
ID : 1
Format : HEVC
Format/Info : High Efficiency Video Coding
Format profile : Main [email protected]@Main
Codec ID : V_MPEGH/ISO/HEVC
Duration : 1 h 18 min
Bit rate : 1 919 kb/s
Width : 1 920 pixels
Height : 1 080 pixels
Display aspect ratio : 16:9
Frame rate mode : Constant
Frame rate : 23.976 (24000/1001) FPS
Color space : YUV
Chroma subsampling : 4:2:0
Bit depth : 10 bits
Bits/(Pixel*Frame) : 0.039
Stream size : 1.05 GiB (51%)
Writing library : x265 2.9+8-27d8424c799d:[Windows][MSVC 1915][64 bit] 10bit
Encoding settings : cpuid=1111039 / frame-threads=3 / numa-pools=8 / wpp / no-pmode / no-pme / no-psnr / no-ssim / log-level=2 / input-csp=1 / input-res=1920x1080 / interlace=0 / total-frames=0 / level-idc=0 / high-tier=1 / uhd-bd=0 / ref=4 / no-allow-non-conformance / no-repeat-headers / annexb / no-aud / no-hrd / info / hash=0 / no-temporal-layers / open-gop / min-keyint=23 / keyint=250 / gop-lookahead=0 / bframes=8 / b-adapt=2 / b-pyramid / bframe-bias=0 / rc-lookahead=100 / lookahead-slices=4 / scenecut=40 / radl=0 / no-intra-refresh / ctu=64 / min-cu-size=8 / no-rect / no-amp / max-tu-size=32 / tu-inter-depth=2 / tu-intra-depth=2 / limit-tu=4 / rdoq-level=2 / dynamic-rd=0.00 / no-ssim-rd / signhide / no-tskip / nr-intra=0 / nr-inter=0 / no-constrained-intra / no-strong-intra-smoothing / max-merge=3 / limit-refs=2 / limit-modes / me=3 / subme=5 / merange=57 / temporal-mvp / weightp / weightb / no-analyze-src-pics / deblock=0:0 / sao / no-sao-non-deblock / rd=6 / no-early-skip / rskip / no-fast-intra / no-tskip-fast / no-cu-lossless / b-intra / no-splitrd-skip / rdpenalty=0 / psy-rd=1.30 / psy-rdoq=2.00 / no-rd-refine / no-lossless / cbqpoffs=0 / crqpoffs=0 / rc=crf / crf=17.0 / qcomp=0.60 / qpstep=4 / stats-write=0 / stats-read=0 / ipratio=1.40 / pbratio=1.30 / aq-mode=2 / aq-strength=1.10 / cutree / zone-count=0 / no-strict-cbr / qg-size=32 / no-rc-grain / qpmax=69 / qpmin=0 / no-const-vbv / sar=1 / overscan=0 / videoformat=5 / range=0 / colorprim=2 / transfer=2 / colormatrix=2 / chromaloc=0 / display-window=0 / max-cll=0,0 / min-luma=0 / max-luma=1023 / log2-max-poc-lsb=8 / vui-timing-info / vui-hrd-info / slices=1 / no-opt-qp-pps / no-opt-ref-list-length-pps / no-multi-pass-opt-rps / scenecut-bias=0.05 / no-opt-cu-delta-qp / no-aq-motion / no-hdr / no-hdr-opt / no-dhdr10-opt / no-idr-recovery-sei / analysis-reuse-level=5 / scale-factor=0 / refine-intra=0 / refine-inter=0 / refine-mv=0 / no-limit-sao / ctu-info=0 / no-lowpass-dct / refine-mv-type=0 / copy-pic=1 / max-ausize-factor=1.0 / no-dynamic-refine / no-single-sei
Language : English
Default : Yes
Forced : No

Audio #1
ID : 2
Format : E-AC-3
Format/Info : Enhanced AC-3
Commercial name : Dolby Digital Plus
Codec ID : A_EAC3
Duration : 1 h 18 min
Bit rate mode : Constant
Bit rate : 448 kb/s
Channel(s) : 6 channels
Channel layout : L R C LFE Ls Rs
Sampling rate : 48.0 kHz
Frame rate : 31.250 FPS (1536 SPF)
Compression mode : Lossy
Stream size : 251 MiB (12%)
Title : Surround 5.1
Language : English
Service kind : Complete Main
Default : Yes
Forced : No

Audio #2
ID : 3
Format : AC-3
Format/Info : Audio Coding 3
Commercial name : Dolby Digital
Codec ID : A_AC3
Duration : 1 h 18 min
Bit rate mode : Constant
Bit rate : 640 kb/s
Channel(s) : 6 channels
Channel layout : L R C LFE Ls Rs
Sampling rate : 48.0 kHz
Frame rate : 31.250 FPS (1536 SPF)
Compression mode : Lossy
Stream size : 358 MiB (17%)
Title : Surround 5.1
Language : French
Service kind : Complete Main
Default : No
Forced : No

Audio #3
ID : 4
Format : AC-3
Format/Info : Audio Coding 3
Commercial name : Dolby Digital
Codec ID : A_AC3
Duration : 1 h 18 min
Bit rate mode : Constant
Bit rate : 640 kb/s
Channel(s) : 6 channels
Channel layout : L R C LFE Ls Rs
Sampling rate : 48.0 kHz
Frame rate : 31.250 FPS (1536 SPF)
Compression mode : Lossy
Stream size : 358 MiB (17%)
Title : Surround 5.1
Language : Spanish
Service kind : Complete Main
Default : No
Forced : No

Text #1
ID : 5
Format : PGS
Codec ID : S_HDMV/PGS
Codec ID/Info : Picture based subtitle format used on BDs/HD-DVDs
Duration : 1 h 18 min
Bit rate : 40.3 kb/s
Count of elements : 2296
Stream size : 22.5 MiB (1%)
Language : English
Default : No
Forced : No

Text #2
ID : 6
Format : PGS
Codec ID : S_HDMV/PGS
Codec ID/Info : Picture based subtitle format used on BDs/HD-DVDs
Duration : 1 h 17 min
Bit rate : 39.3 kb/s
Count of elements : 1942
Stream size : 21.9 MiB (1%)
Language : French
Default : No
Forced : No

Text #3
ID : 7
Format : PGS
Codec ID : S_HDMV/PGS
Codec ID/Info : Picture based subtitle format used on BDs/HD-DVDs
Duration : 1 h 17 min
Bit rate : 35.5 kb/s
Count of elements : 1946
Stream size : 19.8 MiB (1%)
Language : Spanish
Default : No
Forced : No

Menu
00:00:00.000 : :Chapter 01
00:09:21.602 : :Chapter 02
00:18:09.505 : :Chapter 03
00:29:45.116 : :Chapter 04
00:41:49.965 : :Chapter 05
00:49:34.596 : :Chapter 06
00:57:35.201 : :Chapter 07
01:08:01.327 : :Chapter 08
01:15:15.594 : :Chapter 09

Source Information



Unique ID : 194941045006535857643176530457046853269 (0x92A84793A849AAE6AAAE103FCD1CA695)
Complete name : Batman- Return of the Caped Crusaders_t03.mkv
Format : Matroska
Format version : Version 2
File size : 10.1 GiB
Duration : 1 h 18 min
Overall bit rate mode : Variable
Overall bit rate : 18.5 Mb/s
Movie name : Batman: Return of the Caped Crusaders
Encoded date : UTC 2019-09-01 02:49:30
Writing application : MakeMKV v1.14.4 win(x64-release)
Writing library : libmakemkv v1.14.4 (1.3.5/1.4.7) win(x64-release)

Video
ID : 1
ID in the original source medium : 4113 (0x1011)
Format : AVC
Format/Info : Advanced Video Codec
Format profile : [email protected]
Format settings : CABAC / 4 Ref Frames
Format settings, CABAC : Yes
Format settings, RefFrames : 4 frames
Codec ID : V_MPEG4/ISO/AVC
Duration : 1 h 18 min
Bit rate mode : Variable
Bit rate : 14.9 Mb/s
Maximum bit rate : 30.0 Mb/s
Width : 1 920 pixels
Height : 1 080 pixels
Display aspect ratio : 16:9
Frame rate mode : Constant
Frame rate : 23.976 (24000/1001) FPS
Color space : YUV
Chroma subsampling : 4:2:0
Bit depth : 8 bits
Scan type : Progressive
Bits/(Pixel*Frame) : 0.299
Stream size : 8.14 GiB (80%)
Language : English
Default : No
Forced : No
Original source medium : Blu-ray

Audio #1
ID : 2
ID in the original source medium : 4352 (0x1100)
Format : DTS XLL
Format/Info : Digital Theater Systems
Commercial name : DTS-HD Master Audio
Codec ID : A_DTS
Duration : 1 h 18 min
Bit rate mode : Variable
Bit rate : 2 219 kb/s
Channel(s) : 6 channels
Channel layout : C L R Ls Rs LFE
Sampling rate : 48.0 kHz
Frame rate : 93.750 FPS (512 SPF)
Bit depth : 24 bits
Compression mode : Lossless
Stream size : 1.21 GiB (12%)
Title : Surround 5.1
Language : English
Default : Yes
Forced : No
Original source medium : Blu-ray

Audio #2
ID : 3
ID in the original source medium : 4353 (0x1101)
Format : AC-3
Format/Info : Audio Coding 3
Commercial name : Dolby Digital
Codec ID : A_AC3
Duration : 1 h 18 min
Bit rate mode : Constant
Bit rate : 640 kb/s
Channel(s) : 6 channels
Channel layout : L R C LFE Ls Rs
Sampling rate : 48.0 kHz
Frame rate : 31.250 FPS (1536 SPF)
Bit depth : 16 bits
Compression mode : Lossy
Stream size : 358 MiB (3%)
Title : Surround 5.1
Language : French
Service kind : Complete Main
Default : No
Forced : No
Original source medium : Blu-ray

Audio #3
ID : 4
ID in the original source medium : 4354 (0x1102)
Format : AC-3
Format/Info : Audio Coding 3
Commercial name : Dolby Digital
Codec ID : A_AC3
Duration : 1 h 18 min
Bit rate mode : Constant
Bit rate : 640 kb/s
Channel(s) : 6 channels
Channel layout : L R C LFE Ls Rs
Sampling rate : 48.0 kHz
Frame rate : 31.250 FPS (1536 SPF)
Bit depth : 16 bits
Compression mode : Lossy
Stream size : 358 MiB (3%)
Title : Surround 5.1
Language : Spanish
Service kind : Complete Main
Default : No
Forced : No
Original source medium : Blu-ray

Text #1
ID : 5
ID in the original source medium : 4608 (0x1200)
Format : PGS
Codec ID : S_HDMV/PGS
Codec ID/Info : Picture based subtitle format used on BDs/HD-DVDs
Duration : 1 h 18 min
Bit rate : 40.3 kb/s
Count of elements : 2296
Stream size : 22.5 MiB (0%)
Language : English
Default : No
Forced : No
Original source medium : Blu-ray

Text #2
ID : 7
ID in the original source medium : 4609 (0x1201)
Format : PGS
Codec ID : S_HDMV/PGS
Codec ID/Info : Picture based subtitle format used on BDs/HD-DVDs
Duration : 1 h 17 min
Bit rate : 39.3 kb/s
Count of elements : 1942
Stream size : 21.9 MiB (0%)
Language : French
Default : No
Forced : No
Original source medium : Blu-ray

Text #3
ID : 9
ID in the original source medium : 4610 (0x1202)
Format : PGS
Codec ID : S_HDMV/PGS
Codec ID/Info : Picture based subtitle format used on BDs/HD-DVDs
Duration : 1 h 17 min
Bit rate : 35.5 kb/s
Count of elements : 1946
Stream size : 19.8 MiB (0%)
Language : Spanish
Default : No
Forced : No
Original source medium : Blu-ray

Menu
00:00:00.000 : en:Chapter 01
00:09:21.602 : en:Chapter 02
00:18:09.505 : en:Chapter 03
00:29:45.116 : en:Chapter 04
00:41:49.965 : en:Chapter 05
00:49:34.596 : en:Chapter 06
00:57:35.201 : en:Chapter 07
01:08:01.327 : en:Chapter 08
01:15:15.594 : en:Chapter 09

.........................................................................................................................................


Files:

Batman - Return of the Caped Crusaders (2016) (1080p BDRip x265 10bit EAC3 5.1 - Goki)
  • Batman - Return of the Caped Crusaders (2016) (1080p BDRip x265 10bit EAC3 5.1 - Goki).mkv (2.1 GB)
  • Batman - Return of the Caped Crusaders (2016) (1080p BDRip x265 10bit EAC3 5.1 - Goki).nfo (7.2 KB)
  • Batman - Return of the Caped Crusaders (2016) (1080p BDRip x265 10bit EAC3 5.1 - Goki)-banner.jpg (210.5 KB)
  • Batman - Return of the Caped Crusaders (2016) (1080p BDRip x265 10bit EAC3 5.1 - Goki)-clearart.png (669.7 KB)
  • Batman - Return of the Caped Crusaders (2016) (1080p BDRip x265 10bit EAC3 5.1 - Goki)-clearlogo.png (79.2 KB)
  • Batman - Return of the Caped Crusaders (2016) (1080p BDRip x265 10bit EAC3 5.1 - Goki)-disc.png (1.0 MB)
  • Batman - Return of the Caped Crusaders (2016) (1080p BDRip x265 10bit EAC3 5.1 - Goki)-fanart.jpg (272.0 KB)
  • Batman - Return of the Caped Crusaders (2016) (1080p BDRip x265 10bit EAC3 5.1 - Goki)-logo.png (79.2 KB)
  • Batman - Return of the Caped Crusaders (2016) (1080p BDRip x265 10bit EAC3 5.1 - Goki)-poster.jpg (94.1 KB)
  • Batman - Return of the Caped Crusaders (2016) (1080p BDRip x265 10bit EAC3 5.1 - Goki)-thumb.jpg (275.4 KB)

Comments

Code:

  • udp://tracker.coppersurfer.tk:6969/announce
  • udp://tracker.opentrackr.org:1337/announce
  • udp://tracker.torrent.eu.org:451/announce
  • udp://tracker.internetwarriors.net:1337/announce
  • http://tracker.opentrackr.org:1337/announce
  • udp://denis.stalker.upeer.me:6969/announce
  • udp://tracker.coppersurfer.tk:6969
  • udp://tracker.internetwarriors.net:1337
  • udp://9.rarbg.me:2720/announce
  • udp://explodie.org:6969/announce
  • http://tracker3.itzmx.com:6961/announce
  • udp://tracker.cyberia.is:6969/announce
  • udp://thetracker.org/announce
  • udp://open.demonii.si:1337/announce