Comali (2019) Hindi UNCUT 720p WEBRip Dual Audio [Hindi DD2.0 + T...

  • Category Movies
  • Type Dubs/Dual Audio
  • Language Hindi
  • Total size 1.2 GB
  • Uploaded By 300movieshub
  • Downloads 1436
  • Last checked 57 minutes ago
  • Date uploaded 1 day ago
  • Seeders 88
  • Leechers 98

Comali

ComedyDrama

A youngster in his mid-30s goes through a series of struggles after coming to terms with the fact that he was in coma for 16 years.

Infohash : F8CF654EBF2017F18CF8199B2DBD1B2C86E4FB80

Comali (2019) Hindi UNCUT 720p WEBRip Dual Audio [Hindi DD2.0 + Tamil DD2.0] x264 AC3 -HDHub4u.Surf



This Movie is Encoded by HDHub4u.Surf



https://t.me/joinchat/AAAAAFXz27QZxZs_U9QKug





POSTER



INFO

General
Unique ID                   : 307908262496450793433586342623427458733 (0xE7A4F96AD9009B0A119A406B29D476AD)
Complete name               : M:\iDM Downloads\Comali (2019) UNCUT 720p WEB-DL Dual Audio [Hindi DD2.0 + Tamil DD2.0] x264 AC3 -HDHub4u.Surf.mkv
Format                      : Matroska
Format version              : Version 4
File size                   : 1.20 GiB
Duration                    : 2 h 21 min
Overall bit rate            : 1 219 kb/s
Movie name                  : HDHub4u.Surf | Comali (2019) UNCUT 720p WEBRip Dual Audio [Hindi DD2.0 + Tamil DD2.0]
Encoded date                : UTC 2020-01-14 06:28:15
Writing application         : mkvmerge v42.0.0 ('Overtime') 64-bit
Writing library             : libebml v1.3.10 + libmatroska v1.5.2

Video
ID                          : 1
Format                      : AVC
Format/Info                 : Advanced Video Codec
Format profile              : [email protected]
Format settings             : CABAC / 6 Ref Frames
Format settings, CABAC      : Yes
Format settings, ReFrames   : 6 frames
Format settings, GOP        : M=5, N=48
Codec ID                    : V_MPEG4/ISO/AVC
Duration                    : 2 h 21 min
Bit rate                    : 896 kb/s
Width                       : 1 280 pixels
Height                      : 720 pixels
Display aspect ratio        : 16:9
Frame rate mode             : Constant
Frame rate                  : 24.000 FPS
Color space                 : YUV
Chroma subsampling          : 4:2:0
Bit depth                   : 8 bits
Scan type                   : Progressive
Bits/(Pixel*Frame)          : 0.041
Stream size                 : 904 MiB (74%)
Title                       : DownLoaded From HDHub4u.Surf
Writing library             : x264 core 155 r2917 0a84d98
Encoding settings           : cabac=1 / ref=6 / deblock=1:-1:-1 / analyse=0x3:0x133 / me=umh / subme=10 / psy=1 / psy_rd=1.00:0.15 / mixed_ref=1 / me_range=32 / chroma_me=1 / trellis=2 / 8x8dct=1 / cqm=0 / deadzone=21,11 / fast_pskip=0 / chroma_qp_offset=-3 / threads=8 / lookahead_threads=1 / sliced_threads=0 / nr=0 / decimate=1 / interlaced=0 / bluray_compat=0 / constrained_intra=0 / bframes=4 / b_pyramid=2 / b_adapt=2 / b_bias=0 / direct=1 / weightb=1 / open_gop=0 / weightp=2 / keyint=48 / keyint_min=25 / scenecut=0 / intra_refresh=0 / rc_lookahead=48 / rc=crf / mbtree=1 / crf=26.0 / qcomp=0.50 / qpmin=4 / qpmax=69 / qpstep=4 / vbv_maxrate=1540 / vbv_bufsize=3080 / crf_max=0.0 / nal_hrd=none / filler=0 / ip_ratio=1.40 / aq=1:1.00
Default                     : Yes
Forced                      : No
Color range                 : Limited
Color primaries             : BT.709
Transfer characteristics    : BT.709
Matrix coefficients         : BT.709

Audio #1
ID                          : 2
Format                      : AAC LC
Format/Info                 : Advanced Audio Codec Low Complexity
Codec ID                    : A_AAC-2
Duration                    : 2 h 21 min
Bit rate                    : 128 kb/s
Channel(s)                  : 2 channels
Channel layout              : L R
Sampling rate               : 48.0 kHz
Frame rate                  : 46.875 FPS (1024 SPF)
Compression mode            : Lossy
Delay relative to video     : -21 ms
Stream size                 : 129 MiB (10%)
Title                       : DownLoaded From HDHub4u.Surf
Language                    : Tamil
Default                     : No
Forced                      : No

Audio #2
ID                          : 3
Format                      : AC-3
Format/Info                 : Audio Coding 3
Commercial name             : Dolby Digital
Codec ID                    : A_AC3
Duration                    : 2 h 21 min
Bit rate mode               : Constant
Bit rate                    : 192 kb/s
Channel(s)                  : 2 channels
Channel layout              : L R
Sampling rate               : 48.0 kHz
Frame rate                  : 31.250 FPS (1536 SPF)
Bit depth                   : 16 bits
Compression mode            : Lossy
Delay relative to video     : -21 ms
Stream size                 : 194 MiB (16%)
Title                       : DownLoaded From HDHub4u.Surf
Language                    : Hindi
Service kind                : Complete Main
Default                     : Yes
Forced                      : No



SCREENSHOTS





















Keep Visiting HDHub4u.Surf For More Exclusive Contents !


Files:

  • Comali (2019) UNCUT 720p WEB-DL Dual Audio [Hindi DD2.0 + Tamil DD2.0] x264 AC3 -HDHub4u.Surf.mkv (1.2 GB)

There are currently no comments. Feel free to leave one :)

Code:

  • udp://tracker.coppersurfer.tk:6969/announce
  • udp://tracker.leechers-paradise.org:6969/announce
  • udp://tracker.pirateparty.gr:6969/announce
  • udp://eddie4.nl:6969/announce
  • udp://tracker.zer0day.to:1337/announce
  • udp://9.rarbg.me:2740/announce
  • udp://9.rarbg.to:2780/announce
  • udp://public.popcorn-tracker.org:6969/announce
  • udp://p4p.arenabg.ch:1337/announce
  • udp://tracker.opentrackr.org:1337/announce
  • udp://ipv4.tracker.harry.lu:80/announce
  • http://open.kickasstracker.com/announce
  • http://tracker.devil-torrents.pl/announce
  • http://t.nyaatracker.com:80/announce
  • http://retracker.mgts.by:80/announce
  • http://retracker.mgts.by:80/announce
  • http://t.nyaatracker.com:80/announce
  • http://tracker.city9x.com:2710/announce
  • http://tracker.electro-torrent.pl:80/announce
  • udp://bt.xxx-tracker.com:2710/announce
  • udp://retracker.lanta-net.ru:2710/announce
  • udp://tracker.coppersurfer.tk:6969/announce
  • udp://182.176.139.129:6969/announce
  • udp://9.rarbg.me:2740/announce
  • udp://9.rarbg.to:2780/announce
  • udp://public.popcorn-tracker.org:6969/announce
  • udp://tracker.opentrackr.org:1337/announce
  • udp://tracker.internetwarriors.net:1337/announce
  • udp://tracker.coppersurfer.tk:6969/announce
  • udp://tracker.vanitycore.co:6969/announce
  • udp://tracker.pirateparty.gr:6969/announce
  • udp://tracker.internetwarriors.net:1337/announce
  • udp://open.demonii.si:1337/announce