Terminator.Dark.Fate.2019.WEBRip.x264-ION10

  • Category Movies
  • Type Mp4
  • Language English
  • Total size 1.2 GB
  • Uploaded By SirMadMax
  • Downloads 400
  • Last checked 6 days ago
  • Date uploaded 1 week ago
  • Seeders 388
  • Leechers 248

Infohash : 2E980E8F95DAEFFECDC141FACFFDAA69027A5E13



Plot: An augmented human and Sarah Connor must stop an advanced liquid Terminator, from hunting down a young girl, whose fate is critical to the human race.

Genre: Action | Adventure | Sci-Fi
IMDB Rating: 6.5/10 From 53,570 Users
Directed by: Tim Miller
Starring: Linda Hamilton , Arnold Schwarzenegger , Mackenzie Davis , Natalia Reyes

Video
ID : 1
Format : AVC
Format/Info : Advanced Video Codec
Format profile : [email protected]
Format settings : CABAC / 5 Ref Frames
Format settings, CABAC : Yes
Format settings, Reference frames : 5 frames
Codec ID : avc1
Codec ID/Info : Advanced Video Coding
Duration : 2 h 8 min
Bit rate : 1 100 kb/s
Width : 720 pixels
Height : 300 pixels
Display aspect ratio : 2.40:1
Frame rate mode : Constant
Frame rate : 23.976 (24000/1001) FPS
Color space : YUV
Chroma subsampling : 4:2:0
Bit depth : 8 bits
Scan type : Progressive
Bits/(Pixel*Frame) : 0.212
Stream size : 1 008 MiB (81%)
Title : RARBG - Terminator.Dark.Fate.2019.WEBRip.x264-ION10
Writing library : x264 core 152 r2851M ba24899
Encoding settings : cabac=1 / ref=5 / deblock=1:-1:-1 / analyse=0x3:0x113 / me=umh / subme=9 / psy=1 / psy_rd=1.00:0.15 / mixed_ref=1 / me_range=16 / chroma_me=1 / trellis=2 / 8x8dct=1 / cqm=0 / deadzone=21,11 / fast_pskip=1 / chroma_qp_offset=-3 / threads=16 / lookahead_threads=1 / sliced_threads=0 / nr=0 / decimate=1 / interlaced=0 / bluray_compat=0 / constrained_intra=0 / bframes=3 / b_pyramid=2 / b_adapt=2 / b_bias=0 / direct=3 / weightb=1 / open_gop=0 / weightp=2 / keyint=250 / keyint_min=23 / scenecut=40 / intra_refresh=0 / rc_lookahead=50 / rc=2pass / mbtree=1 / bitrate=1100 / ratetol=1.0 / qcomp=0.60 / qpmin=0 / qpmax=69 / qpstep=4 / cplxblur=20.0 / qblur=0.5 / ip_ratio=1.40 / aq=1:1.00
Encoded date : UTC 2020-01-14 05:54:48
Tagged date : UTC 2020-01-14 05:54:48
Codec configuration box : avcC

Audio
ID : 2
Format : AAC LC
Format/Info : Advanced Audio Codec Low Complexity
Codec ID : mp4a-40-2
Duration : 2 h 8 min
Bit rate mode : Constant
Bit rate : 256 kb/s
Channel(s) : 2 channels
Channel layout : L R
Sampling rate : 48.0 kHz
Frame rate : 46.875 FPS (1024 SPF)
Compression mode : Lossy
Stream size : 235 MiB (19%)
Title : RARBG - Terminator.Dark.Fate.2019.WEBRip.x264-ION10
Language : English
Default : Yes
Alternate group : 1
Encoded date : UTC 2020-01-14 05:54:48
Tagged date : UTC 2020-01-14 05:54:48


Files:

Terminator.Dark.Fate.2019.WEBRip.x264-ION10
  • RARBG.txt (0.0 KB)
  • RARBG_DO_NOT_MIRROR.exe (0.1 KB)
  • Subs
    • 2_English.srt (6.5 KB)
    • 3_English.srt (66.9 KB)
  • Terminator.Dark.Fate.2019.WEBRip.x264-ION10.mp4 (1.2 GB)

There are currently no comments. Feel free to leave one :)

Code:

  • http://tracker.trackerfix.com:80/announce
  • udp://9.rarbg.me:2770/announce
  • udp://9.rarbg.to:2740/announce